<?xml version="1.0" standalone="no"?>
<!DOCTYPE svg PUBLIC "-//W3C//DTD SVG 1.1//EN" "http://www.w3.org/Graphics/SVG/1.1/DTD/svg11.dtd" >
<svg xmlns="http://www.w3.org/2000/svg">
  <metadata>Created by iconfont</metadata>
  <defs>
  <font id="iconfont" horiz-adv-x="1024">
    <font-face
      font-family="iconfont"
      font-weight="400"
      font-stretch="normal"
      units-per-em="1024"
      ascent="896"
      descent="-128"
    />
      <missing-glyph />
      
      <glyph glyph-name="a-dropaurlicon" unicode="&#58912;" d="M568.888889 440.888889h341.333333v-113.777778h-341.333333v-341.333333H455.111111v341.333333H113.777778V440.888889h341.333333V782.222222h113.777778v-341.333333z"  horiz-adv-x="1024" />
      
      <glyph glyph-name="left" unicode="&#58911;" d="M525.729185 584.969481a24.727704 24.727704 0 0 0 35.764148 0c9.860741-10.202074 9.860741-26.699852 0-36.901925L402.356148 384l159.137185-164.067556c9.860741-10.202074 9.860741-26.661926 0-36.864a24.727704 24.727704 0 0 0-35.764148 0l-177.000296 182.499556a26.624 26.624 0 0 0 0 36.864L525.729185 585.007407zM512 384m-512 0a512 512 0 1 1 1024 0 512 512 0 1 1-1024 0Z"  horiz-adv-x="1024" />
      
      <glyph glyph-name="shengchengzhongicon" unicode="&#58910;" d="M548.571429 881.127619c137.898667 0 206.848 0 249.709714-42.861714 42.861714-42.812952 42.861714-111.762286 42.861714-249.660953v-390.095238c0-137.99619 0-206.896762-42.861714-249.758476-42.861714-42.861714-111.811048-42.861714-249.709714-42.861714h-97.52381c-137.898667 0-206.848 0-249.709714 42.910476-42.861714 42.812952-42.861714 111.762286-42.861715 249.660952v390.095238c0 137.947429 0 206.896762 42.861715 249.709715 42.861714 42.910476 111.811048 42.910476 249.709714 42.910476h97.52381zM91.331048 758.832762c-5.997714-44.763429-5.997714-100.59581-5.997715-165.449143v-399.701333c0-64.853333 0-120.734476 5.997715-165.497905l0.975238-6.534095a112.786286 112.786286 0 0 0-37.254096 24.576C12.190476 89.088 12.190476 158.086095 12.190476 295.984762v195.047619c0 137.947429 0 206.896762 42.861714 249.709714a112.64 112.64 0 0 0 37.254096 24.576l-0.975238-6.485333z m815.981714 6.485333c14.482286-5.997714 26.672762-13.945905 37.254095-24.576 42.861714-42.812952 42.861714-111.762286 42.861714-249.660952v-195.047619c0-137.99619 0-206.945524-42.861714-249.807238-10.581333-10.581333-22.820571-18.529524-37.254095-24.576l0.975238 6.534095c5.997714 44.763429 5.997714 100.644571 5.997714 165.497905V593.383619c0 64.853333 0 120.685714-5.997714 165.449143l-0.975238 6.485333zM353.52381 186.270476a36.571429 36.571429 0 0 1 0-73.142857h146.285714a36.571429 36.571429 0 0 1 0 73.142857h-146.285714z m0 195.047619a36.571429 36.571429 0 0 1 0-73.142857h292.571428a36.571429 36.571429 0 0 1 0 73.142857h-292.571428z m0 195.047619a36.571429 36.571429 0 1 1 0-73.142857h292.571428a36.571429 36.571429 0 0 1 0 73.142857h-292.571428z"  horiz-adv-x="1024" />
      
      <glyph glyph-name="a-Searchweb-icon" unicode="&#58908;" d="M511.946105 823.996632a434.553263 434.553263 0 1 0-0.161684-869.052632 434.553263 434.553263 0 0 0 0.161684 869.052632zM381.035789 359.208421c1.293474-41.067789 5.12-81.381053 11.425685-119.430737 7.868632-47.319579 19.294316-89.734737 33.306947-124.82021 14.174316-35.354947 30.181053-61.278316 46.133895-77.824 15.845053-16.437895 29.480421-21.504 40.043789-21.504 10.563368 0 24.198737 5.066105 40.04379 21.450105 16.006737 16.599579 31.959579 42.576842 46.133894 77.877895 14.012632 35.085474 25.438316 77.500632 33.306948 124.82021 6.305684 37.995789 10.132211 78.362947 11.425684 119.430737H381.035789z m-241.771789 0a374.083368 374.083368 0 0 1 259.772632-326.170947 375.808 375.808 0 0 0-29.588211 59.392c-15.952842 39.936-28.348632 86.716632-36.75621 137.431579a969.135158 969.135158 0 0 0-12.341895 129.347368h-181.086316z m564.277895 0a969.027368 969.027368 0 0 0-12.341895-129.347368c-8.407579-50.714947-20.803368-97.495579-36.756211-137.431579a376.346947 376.346947 0 0 0-29.642105-59.392 373.921684 373.921684 0 0 1 259.772632 326.170947h-181.086316z m-304.505263 386.748632a373.921684 373.921684 0 0 1-259.772632-326.063158h181.086316c1.293474 44.193684 5.497263 87.902316 12.341895 129.239579 8.407579 50.768842 20.803368 97.495579 36.75621 137.431579 8.730947 21.827368 18.647579 41.822316 29.642105 59.392zM512 763.365053c-10.563368 0-24.198737-5.12-40.043789-21.557895-16.006737-16.491789-31.959579-42.469053-46.133895-77.824-14.012632-35.085474-25.438316-77.446737-33.306948-124.820211a906.940632 906.940632 0 0 1-11.425684-119.376842h261.820632a905.754947 905.754947 0 0 1-11.425684 119.376842c-7.868632 47.373474-19.294316 89.734737-33.306948 124.820211-14.174316 35.354947-30.181053 61.332211-46.133895 77.877895-15.845053 16.384-29.480421 21.504-40.043789 21.557894z m112.909474-17.461895c10.940632-17.569684 20.857263-37.564632 29.58821-59.392 15.952842-39.936 28.348632-86.662737 36.756211-137.431579 6.844632-41.337263 11.048421-84.992 12.341894-129.293474h181.086316a374.029474 374.029474 0 0 1-259.772631 326.063158z"  horiz-adv-x="1024" />
      
      <glyph glyph-name="a-AddTags-icon" unicode="&#58909;" d="M468.426105 871.316211C500.870737 875.627789 529.866105 875.52 559.400421 867.112421c29.426526-8.461474 54.002526-23.821474 79.225263-44.624842 24.629895-20.318316 51.954526-47.696842 85.800421-81.542737l81.381053-81.381053c59.068632-59.068632 106.226526-106.172632 138.13221-147.994947 32.660211-42.738526 53.140211-84.776421 53.140211-134.197895 0-49.421474-20.48-91.459368-53.140211-134.197894-31.905684-41.876211-79.063579-88.926316-138.078315-147.941053-59.014737-59.068632-106.118737-106.172632-147.941053-138.132211-42.792421-32.606316-84.776421-53.086316-134.197895-53.086315-49.475368 0-91.459368 20.48-134.197894 53.086315-41.876211 31.905684-88.926316 79.117474-147.994948 138.132211l-81.381052 81.381053c-33.899789 33.845895-61.278316 61.224421-81.542737 85.800421-20.857263 25.222737-36.217263 49.852632-44.624842 79.225263C25.465263 371.173053 25.411368 400.168421 29.722947 432.613053c4.149895 31.636211 12.934737 69.308632 23.65979 115.981473l12.611368 54.595369c9.054316 39.073684 16.437895 71.356632 25.330527 97.118316 9.108211 26.677895 20.857263 49.583158 40.313263 69.093052 19.509895 19.509895 42.469053 31.258947 69.093052 40.421053 25.761684 8.784842 58.098526 16.222316 97.118316 25.222737L352.498526 847.656421c46.618947 10.778947 84.345263 19.456 115.927579 23.65979zM537.303579 790.096842c-15.198316 4.311579-32.229053 5.227789-58.314105 1.778526-26.947368-3.557053-60.362105-11.210105-108.436211-22.312421L315.796211 756.951579c-40.636632-9.377684-68.176842-15.791158-89.088-22.959158-20.048842-6.844632-30.72-13.473684-38.480843-21.234526-7.814737-7.814737-14.389895-18.485895-21.288421-38.480842-7.168-20.911158-13.527579-48.505263-22.905263-89.141895L131.422316 530.593684c-11.102316-48.128-18.755368-81.542737-22.312421-108.490105-3.449263-26.085053-2.533053-43.115789 1.778526-58.260211 4.365474-15.198316 12.665263-30.073263 29.372632-50.391579 17.300211-20.911158 41.498947-45.217684 76.422736-80.141473l81.434948-81.381053c60.631579-60.577684 103.316211-103.208421 139.910737-131.072 35.570526-27.216842 60.739368-36.648421 85.638737-36.648421 24.845474 0 49.960421 9.431579 85.584842 36.648421 36.594526 27.917474 79.225263 70.494316 139.856842 131.072 60.631579 60.631579 103.208421 103.316211 131.125894 139.856842 27.162947 35.624421 36.648421 60.739368 36.648422 85.638737 0 24.899368-9.485474 50.014316-36.648422 85.638737-27.917474 36.540632-70.494316 79.225263-131.125894 139.910737l-81.381053 81.381052c-34.923789 34.923789-59.176421 59.122526-80.141474 76.422737-20.264421 16.707368-35.193263 25.007158-50.337684 29.372632z m236.597895-351.393684a40.097684 40.097684 0 0 0 56.589473-56.643369L519.841684 71.410526a40.097684 40.097684 0 0 0-56.589473 56.697263l310.541473 310.595369zM269.662316 619.142737A129.077895 129.077895 0 1 0 452.149895 436.547368a129.077895 129.077895 0 0 0-182.487579 182.541474z m125.84421-56.589474a48.936421 48.936421 0 1 1-69.254737-69.308631 48.936421 48.936421 0 0 1 69.254737 69.308631z"  horiz-adv-x="1024" />
      
      <glyph glyph-name="skills-close-icon" unicode="&#58907;" d="M757.519059 594.582588l-234.315294-234.255059 234.315294-234.315294-42.586353-42.526117L480.677647 317.741176l-234.194823-234.315294-42.586353 42.586353 234.194823 234.315294-234.194823 234.194824 42.586353 42.586353 234.194823-234.255059 234.315294 234.315294 42.586353-42.646588z"  horiz-adv-x="1024" />
      
      <glyph glyph-name="a-AddInterestTags" unicode="&#58906;" d="M369.724235 730.352941c76.980706 17.769412 115.471059 26.624 151.672471 16.26353 36.261647-10.420706 64.210824-38.369882 120.048941-94.208l66.138353-66.138353c97.159529-97.159529 145.769412-145.769412 145.769412-206.064942 0-60.416-48.609882-109.025882-145.769412-206.185411-97.219765-97.219765-145.769412-145.769412-206.185412-145.769412-60.355765 0-108.965647 48.549647-206.125176 145.769412L229.074824 240.037647c-55.838118 55.898353-83.727059 83.847529-94.147765 120.048941-10.360471 36.261647-1.445647 74.691765 16.263529 151.672471l10.24 44.393412c14.938353 64.752941 22.467765 97.159529 44.574118 119.265882 22.226824 22.226824 54.573176 29.696 119.326118 44.634353l44.393411 10.24z m377.072941-304.188235a27.105882 27.105882 0 0 1-38.309647 0l-252.265411-252.265412a27.105882 27.105882 0 0 1 38.309647-38.369882l252.205176 252.265412a27.105882 27.105882 0 0 1 0 38.309647zM424.056471 560.489412A72.884706 72.884706 0 1 1 321.054118 457.487059a72.884706 72.884706 0 0 1 103.002353 103.002353z"  horiz-adv-x="1024" />
      
      <glyph glyph-name="skills-icon" unicode="&#58903;" d="M309.894737 340.506947a153.6 153.6 0 0 0 153.6-153.6v-40.421052a153.6 153.6 0 0 0-153.6-153.546106H269.473684a153.6 153.6 0 0 0-153.6 153.6v40.421053a153.6 153.6 0 0 0 153.6 153.6h40.421053z m444.631579 0a153.6 153.6 0 0 0 153.6-153.6v-40.421052a153.6 153.6 0 0 0-153.6-153.546106h-40.421053a153.6 153.6 0 0 0-153.6 153.6v40.421053a153.6 153.6 0 0 0 153.6 153.6h40.421053z m-485.052632-64.619789c-49.098105 0-88.926316-39.828211-88.926316-88.926316v-40.421053c0-49.098105 39.828211-88.926316 88.926316-88.926315h40.421053c49.098105 0 88.926316 39.828211 88.926316 88.926315v40.421053c0 49.098105-39.828211 88.926316-88.926316 88.926316H269.473684z m444.631579 0c-49.098105 0-88.926316-39.828211-88.926316-88.926316v-40.421053c0-49.098105 39.828211-88.926316 88.926316-88.926315h40.421053c49.098105 0 88.926316 39.828211 88.926316 88.926315v40.421053c0 49.098105-39.828211 88.926316-88.926316 88.926316h-40.421053z m-404.210526 509.305263a153.6 153.6 0 0 0 153.6-153.6v-40.421053a153.6 153.6 0 0 0-153.6-153.6H269.473684a153.6 153.6 0 0 0-153.6 153.6v40.421053a153.6 153.6 0 0 0 153.6 153.6h40.421053z m403.725474 10.078316a35.786105 35.786105 0 0 0 68.230736 0c25.330526-76.638316 46.187789-97.495579 122.88-122.88a35.786105 35.786105 0 0 0 0-68.176842c-76.638316-25.330526-97.549474-46.187789-122.88-122.88a35.786105 35.786105 0 0 0-68.230736 0c-25.330526 76.692211-46.241684 97.549474-122.933895 122.88a34.654316 34.654316 0 0 0-24.791579 33.845894c0 14.659368 8.461474 28.725895 24.791579 34.384843 76.692211 25.330526 97.549474 46.187789 122.933895 122.826105zM269.473684 720.518737c-49.098105 0-88.926316-39.828211-88.926316-88.926316v-40.421053c0-49.098105 39.828211-88.926316 88.926316-88.926315h40.421053c49.098105 0 88.926316 39.828211 88.926316 88.926315v40.421053c0 49.098105-39.828211 88.926316-88.926316 88.926316H269.473684z"  horiz-adv-x="1024" />
      
      <glyph glyph-name="Search-icon" unicode="&#58905;" d="M476.882824 756.254118a331.294118 331.294118 0 0 0 267.023058-527.299765l119.808-119.868235a50.115765 50.115765 0 1 0-70.957176-70.957177l-119.868235 119.868235A331.294118 331.294118 0 1 0 476.882824 756.254118z m0-100.352a230.942118 230.942118 0 1 1 0-462.004706 230.942118 230.942118 0 0 1 0 462.004706z"  horiz-adv-x="1024" />
      
      <glyph glyph-name="icon-more" unicode="&#58904;" d="M785.950118 258.288941c58.307765-24.455529 87.461647-38.249412 87.461647-54.994823 0-18.552471-35.900235-33.490824-107.640471-63.427765l-101.556706-42.285177C592.474353 67.764706 556.574118 52.705882 512 52.705882c-44.574118 0-80.474353 14.998588-152.214588 44.875294l-101.556706 42.285177C186.488471 169.803294 150.588235 184.741647 150.588235 203.294118c0 16.745412 29.153882 30.539294 87.461647 54.994823l113.54353-47.284706c66.800941-27.888941 108.784941-45.357176 160.406588-45.357176 51.621647 0 93.605647 17.468235 160.406588 45.357176l113.54353 47.284706z m0 150.588235C844.257882 384.421647 873.411765 370.627765 873.411765 353.882353c0-18.552471-35.900235-33.551059-107.640471-63.488l-101.556706-42.164706C592.474353 218.232471 556.574118 203.294118 512 203.294118c-44.574118 0-80.474353 14.998588-152.214588 44.875294l-101.556706 42.224941C186.488471 320.331294 150.588235 335.329882 150.588235 353.882353c0 16.745412 29.153882 30.539294 87.461647 54.994823l113.54353-47.284705c66.861176-27.828706 108.784941-45.357176 160.406588-45.357177 51.621647 0 93.605647 17.468235 160.406588 45.357177l113.54353 47.284705zM512 655.058824c44.574118 0 80.474353-14.998588 152.214588-44.875295l101.556706-42.285176C837.511529 537.961412 873.411765 523.023059 873.411765 504.470588c0-18.552471-35.900235-33.490824-107.640471-63.427764l-101.556706-42.285177C592.474353 368.941176 556.574118 353.882353 512 353.882353c-44.574118 0-80.474353 14.998588-152.214588 44.875294l-101.556706 42.285177C186.488471 470.979765 150.588235 485.918118 150.588235 504.470588c0 18.552471 35.900235 33.490824 107.640471 63.427765l101.556706 42.285176C431.525647 640 467.425882 655.058824 512 655.058824z"  horiz-adv-x="1024" />
      
      <glyph glyph-name="Copy" unicode="&#58902;" d="M640 842.638222a159.857778 159.857778 0 0 0 157.809778-134.997333c32.711111-5.859556 60.586667-17.180444 83.285333-39.822222 25.713778-25.713778 36.807111-58.026667 41.984-96.426667 5.006222-37.489778 4.949333-85.333333 4.949333-144.725333V213.333333c0-59.448889 0.056889-107.235556-4.949333-144.725333-5.176889-38.4-16.270222-70.712889-41.984-96.369778-25.656889-25.713778-57.969778-36.807111-96.369778-41.984-37.489778-5.006222-85.333333-4.949333-144.725333-4.949333H512c-59.448889 0-107.235556-0.056889-144.725333 4.949333-38.4 5.176889-70.712889 16.270222-96.369778 41.984-22.755556 22.698667-34.019556 50.574222-39.879111 83.285334A159.857778 159.857778 0 0 0 96.028444 213.333333V469.333333c0 79.530667-0.056889 142.449778 6.542223 191.544889 6.712889 50.062222 20.821333 90.510222 52.736 122.481778 31.971556 31.857778 72.476444 46.023111 122.481777 52.736C326.883556 842.695111 389.802667 842.638222 469.333333 842.638222h170.666667zM512 650.638222c-61.212444 0-103.936 0-136.192-4.380444-31.288889-4.209778-47.900444-11.946667-59.733333-23.722667-11.776-11.776-19.456-28.444444-23.665778-59.733333-4.323556-32.199111-4.380444-74.922667-4.380445-136.135111V213.333333c0-61.212444 0-103.936 4.380445-136.192 4.209778-31.288889 11.946667-47.900444 23.722667-59.733333 11.776-11.776 28.444444-19.456 59.733333-23.665778 32.199111-4.380444 74.922667-4.437333 136.135111-4.437333h128c61.212444 0 103.936 0.113778 136.192 4.437333 31.288889 4.209778 47.900444 11.946667 59.733333 23.722667 11.776 11.776 19.456 28.444444 23.665778 59.733333 4.380444 32.199111 4.437333 74.922667 4.437333 136.135111V426.666667c0 61.212444-0.113778 103.936-4.437333 136.192-4.209778 31.288889-11.946667 47.900444-23.722667 59.733333-11.776 11.776-28.444444 19.456-59.733333 23.665778-32.199111 4.323556-74.922667 4.380444-136.135111 4.380444H512z m-42.666667 128c-81.351111 0-139.150222 0-183.011555-5.916444-42.894222-5.745778-67.697778-16.611556-85.731556-34.702222-18.033778-18.033778-28.899556-42.780444-34.645333-85.674667-5.916444-43.804444-5.916444-101.660444-5.916445-183.011556V213.333333c0-42.154667 27.192889-77.824 64.967112-90.737777A2748.700444 2748.700444 0 0 0 223.971556 213.333333V426.666667c0 59.448889-0.056889 107.235556 4.949333 144.725333 5.176889 38.4 16.270222 70.712889 41.984 96.369778 25.656889 25.713778 57.969778 36.807111 96.369778 41.984 37.489778 5.006222 85.333333 4.949333 144.725333 4.949333h128c33.962667 0 64.113778-0.113778 90.737778-1.024a95.914667 95.914667 0 0 1-90.737778 65.024h-170.666667z"  horiz-adv-x="1024" />
      
      <glyph glyph-name="a-watchforme" unicode="&#58901;" d="M494.46912 626.76992c157.0816 0 291.2256-146.35008 344.30976-213.1968 11.63264-14.62272 17.48992-21.95456 17.48992-32.5632 0-10.56768-5.85728-17.89952-17.48992-32.52224-53.08416-66.84672-187.1872-213.1968-344.30976-213.23776-157.12256 0-291.30752 146.39104-344.39168 213.23776-11.63264 14.62272-17.408 21.95456-17.408 32.52224 0 10.60864 5.77536 17.94048 17.408 32.5632 53.08416 66.84672 187.26912 213.1968 344.39168 213.1968z m0-122.79808a122.88 122.88 0 1 1 0-245.76 122.88 122.88 0 0 1 0 245.76zM852.04992 80.24064l6.67648-23.59296a4.5056 4.5056 0 0 1 4.21888-3.19488c2.00704 0 3.72736 1.2288 4.21888 3.19488l6.67648 23.59296a64.512 64.512 0 0 0 44.40064 44.40064l23.552 6.71744a4.5056 4.5056 0 0 1 3.19488 4.21888c0 2.00704-1.2288 3.6864-3.19488 4.21888l-23.552 6.71744a64.512 64.512 0 0 0-44.40064 44.40064l-6.67648 23.552c-0.98304 3.72736-7.168 3.72736-8.192 0l-6.67648-23.552a64.512 64.512 0 0 0-44.35968-44.40064l-23.552-6.71744a4.5056 4.5056 0 0 1-3.23584-4.21888c0-1.96608 1.2288-3.6864 3.23584-4.21888l23.552-6.71744c21.54496-6.18496 38.17472-22.81472 44.35968-44.40064h-0.24576zM155.2384 611.24608l11.0592-38.912c0.8192-2.8672 3.6864-5.3248 6.9632-5.3248 3.31776 0 6.18496 2.048 7.00416 5.3248l11.0592 38.912c10.24 35.6352 37.6832 63.0784 73.35936 73.3184l38.912 11.0592c2.8672 0.8192 5.3248 3.6864 5.3248 6.9632 0 3.2768-2.048 6.144-5.3248 6.9632l-38.912 11.0592c-35.6352 10.24-63.0784 37.6832-73.3184 73.3184l-11.10016 38.912c-1.6384 6.144-11.8784 6.144-13.5168 0l-11.0592-38.912c-10.24-35.6352-37.6832-63.0784-73.35936-73.3184l-38.912-11.0592c-2.8672-0.8192-5.3248-3.6864-5.3248-6.9632 0-3.2768 2.048-6.144 5.3248-6.9632l38.912-11.0592c35.6352-10.24 63.0784-37.6832 73.3184-73.3184h-0.4096z"  horiz-adv-x="1024" />
      
      <glyph glyph-name="qingkong" unicode="&#58898;" d="M813.653333 569.898667a32.853333 32.853333 0 0 0 30.549334-34.944l-20.309334-304.213334c-3.712-56.106667-6.741333-101.461333-13.866666-137.045333-7.381333-36.992-19.882667-67.882667-45.824-92.117333-25.898667-24.192-57.6-34.645333-95.061334-39.552-36.053333-4.693333-81.578667-4.693333-137.898666-4.693334h-38.485334c-56.32 0-101.845333 0-137.898666 4.693334-37.418667 4.906667-69.12 15.36-95.061334 39.552-25.941333 24.234667-38.442667 55.125333-45.824 92.16-7.125333 35.541333-10.154667 80.896-13.909333 137.002666l-20.266667 304.213334a32.853333 32.853333 0 0 0 65.578667 4.394666l20.138667-301.952c3.925333-58.965333 6.741333-99.968 12.885333-130.858666 5.973333-29.952 14.336-45.781333 26.325333-57.002667 11.946667-11.178667 28.373333-18.432 58.709334-22.4 31.232-4.096 72.405333-4.181333 131.584-4.181333h33.962666c59.136 0 100.352 0.085333 131.584 4.181333 30.336 3.968 46.762667 11.221333 58.709334 22.4 11.989333 11.178667 20.352 27.050667 26.325333 57.002667 6.144 30.890667 8.96 71.893333 12.885333 130.858666l20.138667 301.952a32.853333 32.853333 0 0 0 34.986667 30.549334z m-414.506666-109.482667a32.853333 32.853333 0 0 0 36.010666-29.397333l21.930667-218.794667a32.853333 32.853333 0 0 0-65.408-6.528l-21.930667 218.794667a32.853333 32.853333 0 0 0 29.44 35.925333z m225.706666 0a32.853333 32.853333 0 0 0 29.397334-35.925333l-21.930667-218.794667a32.853333 32.853333 0 0 0-65.365333 6.528l21.888 218.794667a32.853333 32.853333 0 0 0 36.010666 29.397333zM586.069333 810.666667c9.514667 0 17.749333 0 25.557334-1.28a98.602667 98.602667 0 0 0 71.893333-51.712c3.669333-6.997333 6.272-14.805333 9.258667-23.808l4.906666-14.677334 1.28-3.712c7.68-21.205333 27.52-35.498667 50.090667-36.053333l3.925333-0.042667h131.498667a32.853333 32.853333 0 1 0 0-65.621333H139.52a32.853333 32.853333 0 1 0 0 65.621333h135.424A54.784 54.784 0 0 1 325.12 715.52l1.28 3.712 4.864 14.677333c2.986667 8.96 5.589333 16.810667 9.216 23.808A98.602667 98.602667 0 0 0 412.373333 809.386667C420.181333 810.666667 428.416 810.666667 437.930667 810.666667h148.138666zM439.893333 745.045333c-12.586667 0-15.189333-0.128-17.152-0.426666a32.938667 32.938667 0 0 1-23.978666-17.237334 141.824 141.824 0 0 1-5.802667-16.213333l-4.394667-13.098667a120.746667 120.746667 0 0 0-7.68-18.688h262.229334a120.789333 120.789333 0 0 0-5.973334 13.781334l-1.706666 4.949333-4.394667 13.098667a141.269333 141.269333 0 0 1-5.802667 16.170666 32.938667 32.938667 0 0 1-23.978666 17.237334 136.192 136.192 0 0 1-17.152 0.426666h-144.213334z"  horiz-adv-x="1024" />
      
      <glyph glyph-name="shouqi" unicode="&#58899;" d="M621.098667 800c78.378667 0 97.834667 0 146.432-6.528 50.048-6.741333 90.496-20.906667 122.453333-52.864 31.914667-31.914667 46.08-72.362667 52.821333-122.410667 6.528-48.597333 6.528-110.72 6.528-189.098666v-90.197334c0-78.378667 0-140.501333-6.528-189.098666-6.741333-50.048-20.906667-90.496-52.864-122.453334-31.914667-31.914667-72.362667-46.08-122.410666-52.821333-48.597333-6.528-68.053333-6.528-146.432-6.528h-175.530667a14260.437333 14260.437333 0 0 0-41.856 0.042667c-59.050667 0.170667-107.648 1.152-147.242667 6.485333-50.048 6.741333-90.496 20.906667-122.453333 52.864-31.914667 31.914667-46.08 72.362667-52.821333 122.410667-6.528 48.597333-6.528 110.72-6.528 189.098666v90.197334c0 78.378667 0 140.501333 6.528 189.098666 6.741333 50.048 20.906667 90.496 52.864 122.453334 31.914667 31.914667 72.362667 46.08 122.410666 52.821333 39.594667 5.290667 88.192 6.314667 147.2 6.485333a32.597333 32.597333 0 0 0 3.114667 0l38.826667 0.042667h175.488z m-183.765334-768h181.333334c81.365333 0 96.512 0.085333 140.373333 5.973333 42.88 5.76 67.626667 16.597333 85.674667 34.645334 18.048 18.048 28.885333 42.794667 34.645333 85.717333 5.930667 43.861333 5.973333 101.632 5.973333 182.997333v85.333334c0 81.365333-0.085333 139.136-5.973333 183.04-5.76 42.88-16.597333 67.626667-34.645333 85.674666-18.048 18.048-42.794667 28.885333-85.717334 34.645334-43.818667 5.930667-58.965333 5.973333-140.330666 5.973333h-181.333334v-704zM373.333333 735.744c-44.117333-0.426667-79.274667-1.792-108.373333-5.717333-42.88-5.76-67.626667-16.597333-85.674667-34.645334-18.048-18.048-28.885333-42.794667-34.645333-85.717333C138.666667 565.802667 138.666667 508.032 138.666667 426.666667v-85.333334c0-81.365333 0.085333-139.136 5.973333-183.04 5.76-42.88 16.597333-67.626667 34.645333-85.674666 18.048-18.048 42.794667-28.885333 85.717334-34.645334 29.013333-3.925333 64.213333-5.248 108.330666-5.717333V735.744zM320 341.333333h-128v42.666667h128v-42.666667z m0 128h-128V512h128v-42.666667z m0 128h-128V640h128v-42.666667z"  horiz-adv-x="1024" />
      
      <glyph glyph-name="Check" unicode="&#58894;" d="M838.7584 629.4528c17.7152-15.5136 19.5072-42.496 3.9936-60.2112L469.504 142.592a42.6496 42.6496 0 0 0-60.0576-4.1984l-224 193.9456a42.6496 42.6496 0 1 0 55.8592 64.512l191.8976-166.144 345.3952 394.752a42.6496 42.6496 0 0 0 60.2112 3.9936z"  horiz-adv-x="1024" />
      
      <glyph glyph-name="tingzhi" unicode="&#58893;" d="M512 384m-512 0a512 512 0 1 1 1024 0 512 512 0 1 1-1024 0ZM640 208V160h-256v48h256z m48 48v256a48 48 0 0 1-48 48h-256a48 48 0 0 1-48-48v-256a48 48 0 0 1 48-48V160a96 96 0 0 0-96 96v256a96 96 0 0 0 96 96h256a96 96 0 0 0 96-96v-256a96 96 0 0 0-96-96v48a48 48 0 0 1 48 48z"  horiz-adv-x="1024" />
      
      <glyph glyph-name="fasong" unicode="&#58892;" d="M512 384m-512 0a512 512 0 1 1 1024 0 512 512 0 1 1-1024 0ZM480.032 533.12l-126.272-126.272a32 32 0 1 0-45.184 45.216l180.8 180.832a32 32 0 0 0 45.216 0l180.864-180.832a32.032 32.032 0 0 0 0-45.216 32 32 0 0 0-45.216 0l-126.272 126.272v-374.912a31.936 31.936 0 1 0-63.936 0V533.12z"  horiz-adv-x="1024" />
      
      <glyph glyph-name="hot-topics" unicode="&#58900;" d="M117.312 639.808c0 76.608 62.08 138.688 138.688 138.688h320a138.368 138.368 0 0 0 138.624-138.688v-533.312a138.112 138.112 0 0 0-61.12-115.008l-1.088-0.64a138.048 138.048 0 0 0-76.416-23.04H256a138.688 138.688 0 0 0-138.688 138.688V639.808z m170.432-414.976a178.112 178.112 0 0 1 256.512 0.192c34.24 35.2 53.056 82.112 53.056 132.032a174.08 174.08 0 0 1-18.048 77.376 177.536 177.536 0 0 1-50.688 61.824 150.656 150.656 0 0 1-21.824 12.992l-16.896 8.704-4.032-18.88-4.16-19.008a106.368 106.368 0 0 0-6.592-19.648l-3.712-8.32-1.792 8.96a140.8 140.8 0 0 1-40.448 73.6A145.024 145.024 0 0 1 352.64 573.44a214.016 214.016 0 0 1-27.712 1.984l-13.824 0.384-1.152-14.016c-1.664-19.584-3.2-33.088-4.48-37.888-4.48-18.112-15.616-36.928-34.944-59.328l-2.048-2.368-0.896-1.216a169.728 169.728 0 0 1-24.448-48.96c-5.632-17.92-8.512-36.736-8.512-56.064 0-49.536 18.88-96.064 53.12-131.136zM750.72 3.84a170.368 170.368 0 0 1 94.208 111.168l98.368 366.976a170.688 170.688 0 0 1-120.704 209.024l-54.912 14.72c7.104-20.672 10.944-42.88 10.944-65.92v-533.312c0-37.44-10.112-72.512-27.84-102.656z"  horiz-adv-x="1024" />
      
      <glyph glyph-name="caidanVector1" unicode="&#58896;" d="M431.8208-82.2784c169.1136 34.4064 250.112 130.4064 367.3088 278.8864-33.9968 179.968-40.2432 319.6928-89.6512 464.128C513.28 671.6416 385.024 722.432 208.896 896c13.7216-402.5856 78.848-624.128 222.9248-978.2784z"  horiz-adv-x="1024" />
      
      <glyph glyph-name="caidanVector2" unicode="&#58897;" d="M819.3024 33.723733C715.0592 334.097067 680.379733 517.12 681.8816 838.587733 524.5952 841.659733 389.700267 816.810667 269.073067 733.3888c-21.981867-215.517867 10.103467-482.167467 86.8352-834.628267 177.698133 148.0704 292.181333 194.833067 463.394133 134.894934z"  horiz-adv-x="1024" />
      
      <glyph glyph-name="A" unicode="&#58891;" d="M280.896 14.208H96l369.792 739.52h184.864L928 199.104H404.16L496.576 384h154.08l-92.448 184.896-277.312-554.656z"  horiz-adv-x="1024" />
      
      <glyph glyph-name="a-Group427319976" unicode="&#58890;" d="M280.896 14.208H96l369.792 739.52h184.864L928 199.104H404.16L496.576 384h154.08l-92.448 184.896-277.312-554.656z"  horiz-adv-x="1024" />
      
      <glyph glyph-name="zhankai-icon" unicode="&#58887;" d="M863.3856 641.1264L512 289.792 160.6144 641.1264 95.3856 576 512 159.3856l416.6144 416.5632-65.2288 65.1776z"  horiz-adv-x="1024" />
      
      <glyph glyph-name="pricing-icon" unicode="&#58888;" d="M511.946105 768a384 384 0 1 0 0-768 384 384 0 0 0 0 768z m195.637895-226.088421a38.965895 38.965895 0 0 1-49.152 0.538947l-5.658947-5.551158-158.773895-190.517894-16.384-19.402106c-4.311579-4.904421-7.706947-8.569263-10.725053-11.317894l-0.215579-0.10779-0.269473 0.10779c-6.467368 4.958316-14.874947 13.204211-29.749895 28.025263L368.855579 411.594105l-27.486316-27.54021-27.486316-27.486316 67.745685-67.799579 19.456-19.132632c6.359579-5.982316 12.449684-11.479579 18.378105-15.952842 11.156211-8.407579 25.330526-16.437895 43.008-17.623579l7.814737-0.107789 7.706947 0.808421c17.515789 2.802526 30.881684 12.072421 41.229474 21.450105 5.497263 5.012211 11.156211 10.994526 16.869052 17.51579l17.677474 20.857263 158.82779 190.571789 4.419368 6.521263a38.965895 38.965895 0 0 1-9.431579 48.289685zM368.855579 411.486316a38.912 38.912 0 0 1-54.972632-54.972632l54.972632 54.972632z"  horiz-adv-x="1024" />
      
      <glyph glyph-name="shouqi-icon" unicode="&#58889;" d="M863.3856 159.3856L512 510.8224l-351.3856-351.4368-65.2288 65.2288L512 641.1264l416.6144-416.512-65.2288-65.2288z"  horiz-adv-x="1024" />
      
      <glyph glyph-name="Points-icon" unicode="&#58886;" d="M128 640m64 0l256 0q64 0 64-64l0 0q0-64-64-64l-256 0q-64 0-64 64l0 0q0 64 64 64ZM128 416m64 0l320 0q64 0 64-64l0 0q0-64-64-64l-320 0q-64 0-64 64l0 0q0 64 64 64ZM128 192m64 0l640 0q64 0 64-64l0 0q0-64-64-64l-640 0q-64 0-64 64l0 0q0 64 64 64ZM736.576 704.512a181.44 181.44 0 1 0 0-362.688 181.504 181.504 0 0 0-181.568 181.376 181.44 181.44 0 0 0 181.568 181.312z m113.92-105.6a28.8 28.8 0 0 1-40.768 0l-107.776-107.648-43.712 43.584-4.544 3.712a28.8 28.8 0 0 1-39.872-39.936l3.648-4.48 64.064-64a28.8 28.8 0 0 1 40.768 0l128.128 128a28.8 28.8 0 0 1 0 40.704z"  horiz-adv-x="1024" />
      
      <glyph glyph-name="Take-icon" unicode="&#58882;" d="M750.976 737.536c83.84 27.904 125.696 41.856 147.776 19.712 22.08-22.08 8.128-64-19.84-147.712l-143.872-431.04C695.36 59.52 675.52 0 639.104 0c-36.48 0-56.32 59.52-96 178.496l-38.016 113.92 220.48 220.224 3.456 3.84a50.56 50.56 0 0 1-71.168 71.232l-3.84-3.456-220.544-220.224-113.856 37.888c-119.168 39.68-178.688 59.52-178.752 96 0 36.48 59.584 56.32 178.752 96l431.36 143.616z"  horiz-adv-x="1024" />
      
      <glyph glyph-name="Thinking-icon" unicode="&#58883;" d="M542.016 792.96c161.28 0 291.904-130.56 291.904-291.584a290.816 290.816 0 0 0-114.816-231.68c-5.376-4.096-8.064-6.144-10.176-8.512-2.112-2.432-3.2-4.352-5.504-8.32a154.944 154.944 0 0 1-17.28-44.416 472.576 472.576 0 0 0-288.32 0 155.328 155.328 0 0 1-17.472 44.608c-2.24 3.84-3.392 5.76-5.504 8.192a71.68 71.68 0 0 1-10.112 8.512 290.944 290.944 0 0 0-114.688 231.616A291.84 291.84 0 0 0 542.08 793.024zM401.92 153.152a524.544 524.544 0 0 1 280 0 140.608 140.608 0 0 0-280 0z m-17.664 460.352c-28.8-28.8-49.92-69.12-49.92-112.064a32.384 32.384 0 1 1 64.704 0c0 21.888 11.328 46.464 31.104 66.176 19.712 19.776 44.288 31.104 66.176 31.104a32.384 32.384 0 1 1 0 64.704c-42.944 0-83.2-21.12-112.064-49.92z"  horiz-adv-x="1024" />
      
      <glyph glyph-name="Watch-icon" unicode="&#58884;" d="M512 640c145.28 0 271.744-120.192 337.024-195.84 22.4-26.048 33.6-39.04 33.6-60.16 0-21.12-11.2-34.112-33.6-60.16C783.744 248.256 657.28 128 512 128s-271.808 120.192-337.024 195.84c-22.4 26.048-33.6 39.04-33.6 60.16 0 21.12 11.2 34.112 33.6 60.16C240.256 519.744 366.72 640 512 640z m0-128a128 128 0 1 1 0-256 128 128 0 0 1 0 256z"  horiz-adv-x="1024" />
      
      <glyph glyph-name="Post-icon" unicode="&#58885;" d="M525.248 768c119.424 0 179.072 0 226.176-19.52a256.128 256.128 0 0 0 138.688-138.56c19.52-47.04 19.52-106.688 19.52-225.92 0-119.296 0-178.88-19.52-225.92a256.128 256.128 0 0 0-138.688-138.56C704.32 0 644.672 0 525.248 0H397.056c-120.768 0-181.184 0-218.752 37.504C140.8 75.008 140.8 135.36 140.8 256V384c0 119.232 0 178.88 19.52 225.92a256.192 256.192 0 0 0 138.688 138.56C346.112 768 405.888 768 525.248 768z m0.256-200.896a54.656 54.656 0 0 1-54.656-54.592V439.04H397.44a54.656 54.656 0 0 1 0-109.248h73.472v-73.344l0.32-5.568a54.656 54.656 0 0 1 108.672 0l0.256 5.568V329.856h73.536l5.632 0.32a54.592 54.592 0 0 1 0 108.608l-5.632 0.32H580.096V512.512a54.656 54.656 0 0 1-54.592 54.592z"  horiz-adv-x="1024" />
      
    </font>
</defs>
</svg>
